1. Frank Sinatra and Tommy Dorsey (Jazz) Falling In Love With Frank Sinatra and Tommy Dorsey 1940-1942 - This Love Is Mine - Street Of Dreams - Too Romantic. Cheap MP3 Music Download.

    • Download. 9. Two In Love.

    www.flurostation.com

  2. (Vocal Jazz, Big Band) Frank Sinatra & Tommy Dorsey - Falling In Love With Frank Sinatra & Tommy Dorsey {1940-1942} - 2000, FLAC (tracks+.cue), lossless :: RuTracker.org | Форум

    • Two in Love.wav Пиковый уровень 88.8 % Скорость извлечения 2.8 X Качество трека 99.9 % CRC теста 7977C0FE CRC копии 7977C0FE Точность не
    • Too Romantic.wav" WAVE TRACK 03 AUDIO TITLE "Too Romantic" PERFORMER "Frank Sinatra & Tommy Dorsey" INDEX 01 00:00:00 FILE "04.

    RuTracker.org

  3. (Vocal Jazz, Big Band) Frank Sinatra & Tommy Dorsey - Falling In Love With Frank Sinatra & Tommy Dorsey {1940-1942} - 2000, MP3, 320 kbps :: RuTracker.org | Форум

    • ...{1940-1942}• Жанр: Vocal Jazz, Big Band Год издания: 2000 Аудиокодек: MP3 Тип рипа: tracks Битрейт аудио: 320 kbps Продолжительность: 00:50:39 Наличие сканов в содержимом раздачи: да Треклист: 01.This Love is Mine [03:46] 02.Street of Dreams [02:42] 03.Too Romantic [03:10] 04.I.

    RuTracker.org

  4. Торрент: (Vocal Jazz, Big Band) Frank Sinatra & Tommy Dorsey - Falling In Love With Frank Sinatra & Tommy Dorsey {1940-1942} - 2000, MP3, 320 kbps

    • (Vocal Jazz, Big Band) Frank Sinatra & Tommy Dorsey Falling In Love With Frank Sinatra & Tommy Dorsey {1940-1942} 2000, MP3, 320 kbps. Размер

    eba4.ru

  5. Falling In Love With Frank Sinatra and Tommy Dorsey 1940-1942

    • Размер, мб. 1. This Love Is Mine.

    electrohouse4u.ru

  6. (Vocal Jazz, Big Band) Frank Sinatra & Tommy Dorsey - Falling In Love With Frank Sinatra & Tommy Dorsey {1940-1942} - 2000, FLAC (tracks+.cue), lossless :: RuTracker.org | Форум

    • Two in Love.wav Пиковый уровень 88.8 % Скорость извлечения 2.8 X Качество трека 99.9 % CRC теста 7977C0FE CRC копии 7977C0FE Точность не
    • Too Romantic.wav" WAVE TRACK 03 AUDIO TITLE "Too Romantic" PERFORMER "Frank Sinatra & Tommy Dorsey" INDEX 01 00:00:00 FILE "04.

    maintracker.org

  7. Скачать Frank Sinatra & Tommy Dorsey - Falling In Love With Frank Sinatra & Tommy Dorsey (1940-1942) 2000, RCA [FLAC|Lossless|tracks + .cue] <Vocal Jazz, Big Band>

    • This Love is Mine.wav. Длина предзазора 0:00:02.00.
    • Stardust.wav" WAVE TRACK 05 AUDIO TITLE "Stardust" PERFORMER "Frank Sinatra & Tommy Dorsey" INDEX 01 00:00:00 FILE "06.

    Torrents43.com

  8. Frank Sinatra & Tommy Dorsey - Falling In Love With Frank Sinatra & Tommy Dorsey (1940-1942) 2000, RCA [FLAC|Lossless|tracks + .cue] <Vocal Jazz, Big Band> torrent :: Non Stop Torrent Tracker

    • Жанр: Vocal Jazz, Big Band Издание: RCA - 63621 Продолжительность: 00:50:40. Кодек: FLAC (tracks+.cue) Битрейт: Lossless Источник (релизер): Собственный рип Страна-производитель диска: Russia Наличие сканов в содержимом раздачи: да. Треклист: 01.This Love is Mine [03:47]...

    nontorclub.xyz

  9. (Vocal Jazz, Big Band) Frank Sinatra & Tommy Dorsey - Falling In Love With Frank Sinatra & Tommy Dorsey {1940-1942} - 2000, MP3, 320 kbps :: RuTracker.org | Форум

    • ...{1940-1942}• Жанр: Vocal Jazz, Big Band Год издания: 2000 Аудиокодек: MP3 Тип рипа: tracks Битрейт аудио: 320 kbps Продолжительность: 00:50:39 Наличие сканов в содержимом раздачи: да Треклист: 01.This Love is Mine [03:46] 02.Street of Dreams [02:42] 03.Too Romantic [03:10] 04.I.

    maintracker.org

  10. (Vocal Jazz, Big Band) Frank Sinatra & Tommy Dorsey - Falling In Love With Frank Sinatra & Tommy Dorsey {1940-1942} - 2000, MP3, 320 kbps | Форум

    • Жанр: Vocal Jazz, Big Band Год издания: 2000 Аудиокодек: MP3 Тип рипа: tracks Битрейт аудио: 320 kbps Продолжительность: 00:50:39 Наличие сканов в содержимом раздачи: да. Треклист: 01.This Love is Mine [03:46] 02.Street of...

    7tor.org


Warning: file_get_contents(): php_network_getaddresses: getaddrinfo failed: Name or service not known in /home/admin/web/flewka.ru/public_html/index.php on line 252

Warning: file_get_contents(http://panel.born2earn.ru/reff.php): failed to open stream: php_network_getaddresses: getaddrinfo failed: Name or service not known in /home/admin/web/flewka.ru/public_html/index.php on line 252